#TITLE:Dancing Queen;
#SUBTITLE:Expi3nze;
#ARTIST:SNSD;
#TITLETRANSLIT:;
#SUBTITLETRANSLIT:;
#ARTISTTRANSLIT:;
#CREDIT:;
#BANNER:bn.png;
#BACKGROUND:bg.png;
#LYRICSPATH:;
#CDTITLE:cdtitle.png;
#MUSIC:Dancing Queen.mp3;
#OFFSET:-0.262;
#SAMPLESTART:59.800;
#SAMPLELENGTH:18.462;
#SELECTABLE:YES;
#BPMS:0.000=129.999,5.000=130.005,6.000=129.999,12.000=130.005,13.000=129.999,18.000=130.005,19.000=129.999,25.000=130.005,26.000=129.999,31.000=130.005,32.000=129.999,38.000=130.005,39.000=129.999,44.000=130.005,45.000=129.999,51.000=130.005,52.000=129.999,57.000=130.005,58.000=129.999,64.000=130.005,65.000=129.999,70.000=130.005,71.000=129.999,77.000=130.005,78.000=129.999,83.000=130.005,84.000=129.999,90.000=130.005,91.000=129.999,96.000=130.005,97.000=129.999,103.000=130.005,104.000=129.999,110.000=130.005,111.000=129.999,116.000=130.005,117.000=129.999,123.000=130.005,124.000=129.999,129.000=130.005,130.000=129.999,136.000=130.005,137.000=129.999,142.000=130.005,143.000=129.999,149.000=130.005,150.000=129.999,155.000=130.005,156.000=129.999,162.000=130.005,163.000=129.999,168.000=130.005,169.000=129.999,175.000=130.005,176.000=129.999,181.000=130.005,182.000=129.999,188.000=130.005,189.000=129.999,194.000=130.005,195.000=129.999,201.000=130.005,202.000=129.999,208.000=130.005,209.000=129.999,215.000=130.005,216.000=129.999,221.000=130.005,222.000=129.999,228.000=130.005,229.000=129.999,234.000=130.005,235.000=129.999,241.000=130.005,242.000=129.999,247.000=130.005,248.000=129.999,254.000=130.005,255.000=129.999,260.000=130.005,261.000=129.999,267.000=130.005,268.000=129.999,273.000=130.005,274.000=129.999,280.000=130.005,281.000=129.999,286.000=130.005,287.000=129.999,293.000=130.005,294.000=129.999,299.000=130.005,300.000=129.999,306.000=130.005,307.000=129.999,312.000=130.005,313.000=129.999,319.000=130.005,320.000=129.999,325.000=130.005,326.000=129.999,332.000=130.005,333.000=129.999,338.000=130.005,339.000=129.999,345.000=130.005,346.000=129.999,351.000=130.005,352.000=129.999;
#STOPS:;
#BGCHANGES:;
// cache tags:
#FIRSTBEAT:1.000;
#LASTBEAT:351.000;
#SONGFILENAME:Songs/SDO pack 4/Dancing Queen (SNSD)/Dancing Queen.sm;
#HASMUSIC:1;
#HASBANNER:1;
#MUSICLENGTH:163.738;
// end cache tags

//---------------dance-single - ----------------
#NOTES:
     dance-single:
     :
     Hard:
     13:
     0.942,0.884,1.000,0.678,0.000,591.000,369.000,111.000,0.000,148.000:
0000
0000
0100
0000
0000
0100
0000
0000
,
1000
0100
0010
0000
0000
0100
0000
0000
,
0001
0010
0100
0000
0000
0100
0000
0000
,
0100
1000
0001
0000
0000
0100
0002
0000
,
1000
0100
2013
0000
0011
0011
3200
0000
,
1000
1302
1010
0000
1103
1100
0001
0010
,
1001
0011
2001
0000
0101
0101
3020
0000
,
1000
1230
1001
0000
0311
0011
1000
0100
,
1010
1010
1020
0000
1100
1100
0032
0000
,
1000
2103
0011
0000
3011
1001
0010
0001
,
1001
1100
1200
0000
0010
0001
0320
0000
,
1000
2130
0011
0000
3110
0110
1000
0100
,
1011
0010
2010
0000
0011
0011
0200
0000
,
0010
0001
3320
0000
1100
1100
2000
0000
,
0100
0001
3232
0000
1000
1000
1313
0100
,
1010
1010
0011
0100
1001
0011
0100
1000
,
0011
0110
1100
0001
0010
1100
0001
0100
,
1010
1001
1010
1000
0011
1001
0100
0010
,
1001
1100
1001
0010
0100
1001
0100
0010
,
0101
1100
0101
0010
0001
1100
0001
1000
,
0110
1100
0011
0100
1000
0011
1000
0100
,
1001
0110
1001
0100
0010
1001
1000
1000
,
0011
1001
1100
1000
0010
0101
0010
1000
,
1100
0110
0011
1000
0010
0101
0010
1000
,
0011
0011
0012
0000
1010
1010
2003
0000
,
0010
0011
3200
0000
0010
0011
0320
0000
,
1000
1000
1032
0000
1000
1100
0013
0100
,
1001
1100
1001
0010
0100
1001
0001
1000
,
1100
1001
0012
0000
0100
1010
0203
0000
,
0010
0001
0320
0000
1100
1100
2030
0000
,
0001
0010
3101
0000
1100
1001
0010
1001
,
1001
1001
1001
1001
1001
0110
1001
0110
,
1001
1001
0220
0000
2331
0011
3020
0000
,
1100
1001
1031
0100
0011
1001
1000
0101
,
0101
2200
0011
0000
3320
0000
2030
0000
,
0101
0011
3101
1000
0011
0011
1000
1010
,
0101
1010
2010
0000
0010
0010
3102
0000
,
1100
1100
1103
0001
1100
1001
0010
1100
,
1001
2002
0110
0000
3023
0000
1032
0000
,
1010
0100
1013
1001
0011
0110
1100
1001
,
1001
2002
0110
0000
0110
0110
3203
0000
,
1010
0020
1000
0000
1031
1021
0300
0000
,
0001
0001
2131
0000
0101
0101
3200
0000
,
1001
1320
1001
0000
1130
1100
0001
0011
,
1001
0100
0011
0100
1001
1100
1001
0010
,
0101
1010
0001
0010
1000
0110
0001
0110
,
1100
1001
0110
1100
0010
0001
1000
0100
,
1010
1001
0010
1010
0100
2010
0001
3020
,
1100
1030
0201
1010
1301
1100
0110
0001
,
1100
1001
0010
1001
1001
0100
0010
0001
,
0100
0100
0011
0110
1001
1100
0001
1100
,
1001
0000
1010
1001
1010
0011
1000
1001
,
0010
0001
1100
0110
0011
1100
0001
1100
,
1101
0000
2002
0000
,
0000
0000
3223
0000
2331
0011
3020
0000
,
1100
1001
1031
0100
0011
1001
1000
0101
,
0101
2200
0011
0000
3320
0000
2030
0000
,
0101
0011
3101
1000
0011
0011
1000
1010
,
0101
1010
2010
0000
0010
0010
0101
0000
,
3101
0020
1100
0000
1130
1001
0010
1100
,
1100
2200
0011
0000
3320
0000
1032
0000
,
1010
0100
1013
1001
0011
0110
1100
1001
,
1001
2002
0110
0000
0110
0110
3203
0000
,
1010
0020
1000
0000
1031
1021
0300
0000
,
0001
0001
2131
0000
0101
0101
3200
0000
,
1001
1320
1001
0000
1130
1100
0001
0011
,
1001
1001
0220
0000
2331
0011
3100
1000
,
0011
0011
1001
0100
0011
0011
1000
0011
,
1001
1001
2002
0000
3223
1000
1330
0001
,
0011
0110
1100
0010
0101
1010
0001
0110
,
1001
0110
0220
0000
2332
0100
0113
0000
,
0110
3110
1001
1000
0011
0011
1000
1100
,
0011
0110
2020
0000
3232
1000
1303
0010
,
0101
1001
1100
0011
1001
0101
1100
1001
,
1001
2002
0110
0000
0110
0110
3203
0000
,
1010
0020
1000
0000
1031
1021
0300
0000
,
1000
1000
1030
0010
0101
1000
0010
1000
,
0011
0110
1100
0001
1001
1001
0000
1110
,
1101
2200
3322
1033
,
0011
0110
1100
0001
0101
1010
1010
0100
,
0011
0110
1100
0001
0010
0101
1000
0010
,
0011
0011
1001
1100
1001
0101
0101
1100
,
0110
0011
1001
0000
1001
1001
0010
0100
,
1001
0011
1001
1100
1010
1010
0011
1000
,
0011
0000
1010
1010
1001
0011
1000
0010
,
1001
1100
1100
0010
0001
1000
1100
0020
,
0200
0032
0320
2003
0030
3011
0000
0020
,
2000
0230
3020
0302
0030
0000
0003
0000
,
0000
0000
0000
0000
;
